#TITLE:Looking for Love;
#SUBTITLE:;
#ARTIST:Kevin Johnson;
#TITLETRANSLIT:;
#SUBTITLETRANSLIT:;
#ARTISTTRANSLIT:;
#GENRE:;
#CREDIT:;
#BANNER:banner.png;
#BACKGROUND:;
#LYRICSPATH:;
#CDTITLE:cdtitle.png;
#MUSIC:looking.mp3;
#OFFSET:0.263;
#SAMPLESTART:58.580;
#SAMPLELENGTH:12.000;
#SELECTABLE:YES;
#BPMS:0.000=155.000;
#STOPS:;
#DELAYS:;
#TIMESIGNATURES:0.000=4=4
;
#BGCHANGES:0.000=flipped.avi=1.000=0=0=1=====,
0.500=flipped.avi=1.000=0=0=1=====,
99999=-nosongbg-=1.000=0=0=0 // don't automatically add -songbackground-
;
#KEYSOUNDS:;
#ATTACKS:;
// cache tags:
#FIRSTBEAT:9.000;
#LASTBEAT:387.000;
#SONGFILENAME:/Songs/ParaPara/Looking for love/looking.sm;
#HASMUSIC:1;
#HASBANNER:1;
#MUSICLENGTH:151.863;
// end cache tags

//---------------para-single - ----------------
#NOTES:
     para-single:
     :
     Beginner:
     4:
     0.310,0.414,0.290,0.105,0.105,270.000,44.000,16.000,0.000,0.000,0.000,0.000,-1.000,-1.000,0.310,0.414,0.290,0.105,0.105,270.000,44.000,16.000,0.000,0.000,0.000,0.000,-1.000,-1.000:
00000
00000
00000
00000
,
00000
00000
00000
00000
,
00000
00001
10000
00001
,
10000
00001
10000
00001
,
10000
00001
10000
00001
,
10000
00110
00110
01100
,
01100
00001
10000
00001
,
10000
00001
10000
00001
,
10000
00001
10000
00001
,
10000
00110
00110
01100
,
01100
00000
00100
00000
,
00100
00000
00100
00000
,
00100
00000
00100
00000
,
00100
00000
00100
00000
,
00100
01000
00100
00010
,
00000
00010
00100
01000
,
00000
00000
00000
00000
,
00000
00000
00000
00000
,
00000
00000
00100
00000
,
00100
00000
00100
00000
,
00100
00000
00100
00000
,
00100
00000
00100
00000
,
00100
01000
00100
00010
,
00000
00010
00100
01000
,
00000
00000
00000
00000
,
00000
00000
00000
00000
,
00000
00010
00010
01000
,
01000
00010
00010
01000
,
01000
00000
00000
01000
00100
00010
00001
00000
00000
00010
00100
01000
,
10000
02020
00000
03030
,
00000
00010
00010
01000
,
01000
00010
00010
01000
,
01000
00000
00000
01000
00100
00010
00001
00000
00000
00010
00100
01000
,
10000
02020
03030
00000
,
00000
00000
00000
20000
00000
00000
31000
00100
00010
00001
00000
00000
,
00000
01001
00000
00000
,
00000
00010
01000
00010
,
01000
01000
00010
01000
,
00010
00000
00000
00002
00000
00000
00013
00100
01000
10000
00000
00000
,
00000
10010
00000
00000
,
00000
01010
00000
01010
,
00000
00000
00000
00000
,
00000
01010
00000
01010
,
00000
00000
00000
00000
,
00000
00000
00000
20000
00000
00000
31000
00100
00010
00001
00000
00000
,
00000
01001
00000
00000
,
00000
00010
01000
00010
,
01000
01000
00010
01000
,
00010
00000
00000
00002
00000
00000
00013
00100
01000
10000
00000
00000
,
00000
10010
00000
00000
,
00000
01010
00000
01010
,
00000
00000
00000
00000
,
00000
01010
00000
01010
,
00000
00000
00000
00000
,
00000
00001
10000
00001
,
10000
00001
10000
00001
,
10000
00001
10000
00001
,
10000
00110
00110
01100
,
01100
00001
10000
00001
,
10000
00001
10000
00001
,
10000
00001
10000
00001
,
10000
00110
00110
01100
,
01100
00000
00100
00000
,
00100
00000
00100
00000
,
00100
00000
00100
00000
,
00100
00000
00100
00000
,
00100
01000
00100
00010
,
00000
00010
00100
01000
,
00000
00000
00000
00000
,
00000
00000
00000
00000
,
00000
00010
00010
01000
,
01000
00010
00010
01000
,
01000
00000
00000
01000
00100
00010
00001
00000
00000
00010
00100
01000
,
10000
02020
00000
03030
,
00000
00010
00010
01000
,
01000
00010
00010
01000
,
01000
00000
00000
01000
00100
00010
00001
00000
00000
00010
00100
01000
,
10000
02020
03030
00000
,
00000
00000
00000
20000
00000
00000
31000
00100
00010
00001
00000
00000
,
00000
01001
00000
00000
,
00000
00010
01000
00010
,
01000
01000
00010
01000
,
00010
00000
00000
00002
00000
00000
00013
00100
01000
10000
00000
00000
,
00000
10010
00000
00000
,
00000
01010
00000
01010
,
00000
00000
00000
00000
,
00000
01010
00000
01010
,
00000
00000
00000
00000
,
00000
00000
00000
20000
00000
00000
31000
00100
00010
00001
00000
00000
,
00000
01001
00000
00000
,
00000
00010
01000
00010
,
01000
01000
00010
01000
,
00010
00000
00000
00002
00000
00000
00013
00100
01000
10000
00000
00000
,
00000
10010
00000
00000
,
00000
01010
00000
01010
,
00000
00000
00000
00000
,
00000
01010
00000
01010
;
